Home » 2017 » June » 1 » Emperor - Tireless 2017
7:06 PM
Emperor - Tireless 2017
Category: Straina | Views: 1327 | Added by: 7up | Tags: Emperor - Tireless www.firecs.ro, MUZICA NOUA 31.MAI.2017, MUZICA NOUA 2017, firecs.ro | Rating: 0.0/0
Total comments: 8
avatar
0
1
JoyMii - Candy Alexa - Fucking my sister's boyfriend mp4
https://rarbg.to/torrent/91qdbli
Candy\'s sister had been dating Kristof for about two months, and Candy was way hot for him. She also sensed that her sister didn\'t know how to please him, and she wanted a try. When the chance finally came up, she took it like a wild animal. Seeing Candy go down on him with a deep hunger is definitely one of the hottest things you\'r going to see all week. This girl is incredibly beautiful, but more importantly, she\'s got a sexual hunger in her that you can read in everything she does. She sucks and fucks Kristof until neither of them can go any farther. I bet you wish your girl had a sister like Candy!
avatar
0
2
ColombiaFuckFest.17.06.06.Reina.Taylor.XXX.1080p.MP4-KTR

Genre.......: Adult
Files.......: 41
Video.......: MP4
Date........: 2017-06-06
URL.........: http://www.bangbros.com/
avatar
0
3
Category: XXX (18+)
Size: 612.91 MB
Show/Hide Files:
1 file
Added: 2017-06-06 10:02:41
Hits: 14171
Peers: Seeders : 375 , Leechers : 315 = 690
Hit&Run: 81%
Tags: JulesJordan Megan Rain Dp’d She Takes Two Loads Her Asshole mp4
Release name: JulesJordan - Megan Rain Dp’d, She Takes Two Loads In Her Asshole! mp4
avatar
0
4
[-] Hide MediaInfo
Video
ID : 1
Format : AVC
Format/Info : Advanced Video Codec
Format profile : High@L3
Format settings, CABAC : No
Format settings, ReFrames : 1 frame
Codec ID : avc1
Codec ID/Info : Advanced Video Coding
Duration : 50 min 27 s
Bit rate : 2 200 kb/s
Maximum bit rate : 4 119 kb/s
Width : 720 pixels
Height : 404 pixels
Display aspect ratio : 16:9
Original display aspect ratio : 16:9
Frame rate mode : Constant
Frame rate : 29.970 (30000/1001) FPS
Original frame rate : 29.970 (29970/1000) FPS
Color space : YUV
Chroma subsampling : 4:2:0
Bit depth : 8 bits
Scan type : Progressive
Bits/(Pixel*Frame) : 0.252
Stream size : 787 MiB (94%)
Writing library : x264 core 116 r2019 9cc407d
Encoding settings : cabac=0 / ref=1 / deblock=1:0:0 / analyse=0x3:0x113 / me=hex / subme=7 / psy=1 / psy_rd=1.00:0.00 / mixed_ref=0 / me_range=16 / chroma_me=1 / trellis=1 / 8x8dct=1 / cqm=0 / deadzone=21,11 / fast_pskip=1 / chroma_qp_offset=-2 / threads=6 / sliced_threads=0 / nr=0 / decimate=1 / interlaced=0 / bluray_compat=0 / constrained_intra=0 / bframes=0 / weightp=2 / keyint=250 / keyint_min=25 / scenecut=40 / intra_refresh=0 / rc_lookahead=40 / rc=abr / mbtree=1 / bitrate=2200 / ratetol=1.0 / qcomp=0.60 / qpmin=0 / qpmax=69 / qpstep=4 / ip_ratio=1.40 / aq=1:1.00
Encoded date : UTC 2017-06-03 15:36:14
Tagged date : UTC 2017-06-03 15:36:25

Audio
ID : 2
Format : AAC
Format/Info : Advanced Audio Codec
Format profile : LC
Codec ID : 40
Duration : 50 min 27 s
Bit rate mode : Variable
Bit rate : 125 kb/s
Maximum bit rate : 182 kb/s
Channel(s) : 2 channels
Channel positions : Front: L R
Sampling rate : 48.0 kHz
Frame rate : 46.875 FPS (1024 spf)
Compression mode : Lossy
Stream size : 45.2 MiB (5%)
Encoded date : UTC 2017-06-03 15:36:23
Tagged date : UTC 2017-06-03 15:36:25
avatar
0
5
[1337 GAGBALL ASCii here]

ReleaseName.....: Joymii.com_17.05.04.Lucy.and.Alberto.Celebration.XXX.IMAGESET-GAGBALL
ReleaseSize.....: 35 x 5MB
ReleaseDate.....: 06/06/2017
SiteURL.........: http://www.joymii.com

[ur mom GAGBALLed there]
avatar
0
6
Patchwork.2015.1080p.WEB-DL.DD5.1.H264-FGT
https://rarbg.to/torrent/5xm4upt
https://rarbg.to/downloa....torrent
A bombastic throw-back horror-comedy that follows three young women who go out partying one night and find themselves Frankensteined together in one body. Now they
must put aside their differences so they can find who did this and exact revenge!
avatar
0
7
Description:

[+] Show MediaInfo

Patchwork.2015.1080p.WEB-DL.DD5.1.H264-FGT http://imdb.com/title/tt4929720/
Rating:

Currently 0.00/5
1
2
3
4
5

Rating: 0.0/5 (0 votes cast)
Category: Movies/x264/1080
Size: 3.01 GB
Show/Hide Files:
4 files
Added: 2017-06-06 15:30:09
Title: Patchwork (2015)
IMDB Rating: 7.4/10 from 133 users Updated : 2017-06-06
Genres: Comedy , Horror
Actors: Tory Stolper , Tracey Fairaway , Maria Blasucci , James Phelps , Craig Anstett , Seth Cassell , Braden Davis , Anthony DiMieri , Eric Edelstein ,
Camila Greenberg , Mark Hapka , Danny Jolles , Luke Lenza , Todd Lubitsch , Amanda Markowitz
Director: Tyler MacIntyre
avatar
0
8
SUPPORT : support@rarbg.to FAQ DMCA : spam@rarbg.to DMCA INFO HERE : DMCA Info

Tue, 06 Jun 2017 15:36:33 +0200

friday the 13th ncis los angele aw sy Girls Love Girl ASHLEY

Powered by hamsters 1.0
By using this site you agree to and accept our user agreement. If you havent read the user agreement please do so here
avatar